铁甲战神/起义/战俘 Revolt.2017.1080p.WEB-DL.DD5.1.H264-FGT 2.99GB

发表

铁甲战神/起义/战俘 Revolt.2017.1080p.WEB-DL.DD5.1.H264-FGT 2.99GB◎译  名 铁甲战神/起义/战俘

◎片  名 Revolt

◎年  代 2017

◎产  地 美国

◎类  别 科幻

◎语  言 英语

◎IMDb评分 6.0/10 from 58 users

◎IMDb链接 http://www.imdb.com/title/tt3722614/

◎豆瓣评分 9.0/10 from 24 users

◎豆瓣链接 https://movie.douban.com/subject/25891853/

◎BT之家整理 http://www.btbtt.co

◎导  演 Joe Miale

◎主  演 李·佩斯 Lee Pace

贝纳尼丝·玛尔洛 Bérénice Marlohe

◎简  介

The story of humankind's last stand against a cataclysmic alien invasion. Set in the war-ravaged African countryside, a U.S. soldier and a French foreign aid worker team up to survive the alien onslaught. As they journey through the battlefield in search of refuge, their bond will be tested when the soldier discovers his true identity.

Video
ID : 1
Format : AVC
Format/Info : Advanced Video Codec
Format profile : High@L4
Format settings, CABAC : Yes
Format settings, ReFrames : 5 frames
Codec ID : V_MPEG4/ISO/AVC
Duration : 1 h 27 min
Bit rate : 4 418 kb/s
Width : 1 920 pixels
Height : 804 pixels
Display aspect ratio : 2.40:1
Frame rate mode : Constant
Frame rate : 23.976 FPS
Color space : YUV
Chroma subsampling : 4:2:0
Bit depth : 8 bits
Scan type : Progressive
Bits/(Pixel*Frame) : 0.119
Stream size : 2.69 GiB (90%)
Title : Revolt.2017.1080p.WEB-DL.DD5.1.H264-FGT
Language : English
Default : Yes
Forced : No
Color range : Limited
Color primaries : BT.709
Transfer characteristics : BT.709
Matrix coefficients : BT.709

Audio
ID : 2
Format : AC-3
Format/Info : Audio Coding 3
Format settings, Endianness : Big
Codec ID : A_AC3
Duration : 1 h 27 min
Bit rate mode : Constant
Bit rate : 384 kb/s
Channel(s) : 6 channels
Channel positions : Front: L C R, Side: L R, LFE
Sampling rate : 48.0 kHz
Frame rate : 31.250 FPS (1536 spf)
Bit depth : 16 bits
Compression mode : Lossy
Stream size : 240 MiB (8%)
Title : Revolt.2017.1080p.WEB-DL.DD5.1.H264-FGT
Language : English
Service kind : Complete Main
Default : Yes
Forced : No

Menu
00:00:00.000 : en:1
00:13:32.812 : en:2
00:25:51.133 : en:3
00:43:15.635 : en:4
00:55:44.884 : en:5
01:08:19.513 : en:6
01:22:54.554 : en:7

发表评论

:?: :razz: :sad: :evil: :!: :smile: :oops: :grin: :eek: :shock: :???: :cool: :lol: :mad: :twisted: :roll: :wink: :idea: :arrow: :neutral: :cry: :mrgreen: